conanlcg
超級版主

[更 早] [歐美] [劇情] [WEB-1080P] 美國瘋狂 American.Madness.1932.1080p.WEBRip.x264-RARBG 1.46GB

-->

帖子完整標題:美國瘋狂 American.Madness.1932.1080p.WEBRip.x264-RARBG 1.46GB




◎譯  名 美國瘋狂
◎片  名 American Madness
◎年  代 1932
◎產  地 美國
◎類  別 劇情
◎語  言 英語
◎上映日期 1932-08-04
◎IMDb評分 7.4/10 from 1693 users
◎IMDb鏈接 https://www.imdb.com/title/tt0022626
◎豆瓣評分 7.6/10 from 78 users
◎豆瓣鏈接 https://movie.douban.com/subject/1932024/
◎片  長 75 分鐘
◎導  演 Frank Capra
◎編  劇 Robert Riskin
◎主  演 Walter Huston
      Pat O'Brien
      Kay Johnson


◎標  簽 弗蘭克·卡普拉 | 美國 | FrankCapra | 美國電影 | 劇情 | 1932 | 1930s | 犯罪

◎簡  介

  Socially-conscious banker Thomas Dickson faces a crisis when his protégé is wrongly accused for robbing the bank, gossip of the robbery starts a bank run, and evidence suggests Dickson's wife had an affair...all in the same day.
Video
ID : 1
Format : AVC
Format/Info : Advanced Video Codec
Format profile : [email protected]
Format settings : CABAC / 4 Ref Frames
Format settings, CABAC : Yes
Format settings, Reference frames : 4 frames
Codec ID : avc1
Codec ID/Info : Advanced Video Coding
Duration : 1 h 16 min
Bit rate : 2 500 kb/s
Width : 1 440 pixels
Height : 1 080 pixels
Display aspect ratio : 4:3
Frame rate mode : Constant
Frame rate : 23.976 (23976/1000) FPS
Color space : YUV
Chroma subsampling : 4:2:0
Bit depth : 8 bits
Scan type : Progressive
Bits/(Pixel*Frame) : 0.067
Stream size : 1.33 GiB (92%)
Writing library : x264 core 152 r2851M ba24899
Encoding settings : cabac=1 / ref=4 / deblock=1:-1:-1 / analyse=0x3:0x113 / me=umh / subme=9 / psy=1 / psy_rd=1.00:0.15 / mixed_ref=1 / me_range=24 / chroma_me=1 / trellis=2 / 8x8dct=1 / cqm=0 / deadzone=21,11 / fast_pskip=1 / chroma_qp_offset=-3 / threads=16 / lookahead_threads=4 / sliced_threads=0 / nr=0 / decimate=1 / interlaced=0 / bluray_compat=0 / constrained_intra=0 / bframes=3 / b_pyramid=2 / b_adapt=2 / b_bias=0 / direct=3 / weightb=1 / open_gop=0 / weightp=2 / keyint=250 / keyint_min=25 / scenecut=40 / intra_refresh=0 / rc_lookahead=50 / rc=2pass / mbtree=1 / bitrate=2500 / ratetol=1.0 / qcomp=0.60 / qpmin=0 / qpmax=69 / qpstep=4 / cplxblur=20.0 / qblur=0.5 / vbv_maxrate=31250 / vbv_bufsize=31250 / nal_hrd=none / filler=0 / ip_ratio=1.40 / aq=3:1.00
Encoded date : UTC 2019-10-14 07:31:34
Tagged date : UTC 2019-10-14 07:31:34
Codec configuration box : avcC

Audio
ID : 2
Format : AAC LC
Format/Info : Advanced Audio Codec Low Complexity
Codec ID : mp4a-40-2
Duration : 1 h 16 min
Bit rate mode : Constant
Bit rate : 224 kb/s
Channel(s) : 2 channels
Channel layout : L R
Sampling rate : 48.0 kHz
Frame rate : 46.875 FPS (1024 SPF)
Compression mode : Lossy
Stream size : 122 MiB (8%)
Language : English
Default : Yes
Alternate group : 1
Encoded date : UTC 2019-10-14 07:31:34
Tagged date : UTC 2019-10-14 07:31:34





1 個附件 售價 大小 下載 時間

American.Madness.1932.1080p.WEBRip.x264-RARBG.torrent 0 金幣 15.23K 238 次 1月前

#1樓
發帖時間:2019-10-14 18:15:15   |   回復數:1
911degrees
隱世仙人♂
非常感謝,謝謝分享
1月前 #2樓
游客組