conanlcg
超級版主

[更 早] [歐美] [喜劇] [WEB-1080P] 新婚燕爾/冷戰夫妻 Barefoot.in.the.Park.1967.1080p.WEBRip.x264-RARBG 2.02GB

-->

帖子完整標題:新婚燕爾/冷戰夫妻 Barefoot.in.the.Park.1967.1080p.WEBRip.x264-RARBG 2.02GB




◎譯  名 新婚燕爾 / 冷戰夫妻(港) / 裸婚 / 裸足佳偶
◎片  名 Barefoot in the Park
◎年  代 1967
◎產  地 美國
◎類  別 喜劇 / 愛情
◎語  言 英語
◎上映日期 1967-12-28
◎IMDb評分 7.0/10 from 15161 users
◎IMDb鏈接 https://www.imdb.com/title/tt0061385
◎豆瓣評分 7.4/10 from 470 users
◎豆瓣鏈接 https://movie.douban.com/subject/1300259/
◎片  長 106 分鐘
◎導  演 吉恩·薩克斯 Gene Saks
◎編  劇 尼爾·西蒙 Neil Simon
◎主  演 羅伯特·雷德福 Robert Redford
      簡·方達 Jane Fonda
      查爾斯·博耶 Charles Boyer


◎標  簽 愛情 | 喜劇 | 美國 | RobertRedford | JaneFonda | 美國電影 | 1967 | 1960s

◎簡  介

  保羅布瑞特是一個保守嚴肅、一板一眼的年輕律師,他的新婚妻子柯瑞則是活潑有朝氣、自由不羈的女人。婚后他們住在紐約一棟沒有電梯的五層公寓,兩人不但得忍受每天爬上爬下五層樓的痛苦,還得忍受怪鄰居維克特的不時騷攏,這一對個性南轅北轍的夫婦,是否能在人人都不看好的情況下,維系他們的婚姻呢?

◎獲獎情況

  第40屆奧斯卡金像獎(1968)
  最佳女配角(提名) 米爾翠德·納特威克
Video
ID : 1
Format : AVC
Format/Info : Advanced Video Codec
Format profile : [email protected]
Format settings : CABAC / 4 Ref Frames
Format settings, CABAC : Yes
Format settings, Reference frames : 4 frames
Codec ID : avc1
Codec ID/Info : Advanced Video Coding
Duration : 1 h 46 min
Bit rate : 2 500 kb/s
Width : 1 920 pixels
Height : 1 080 pixels
Display aspect ratio : 16:9
Frame rate mode : Constant
Frame rate : 23.976 (23976/1000) FPS
Color space : YUV
Chroma subsampling : 4:2:0
Bit depth : 8 bits
Scan type : Progressive
Bits/(Pixel*Frame) : 0.050
Stream size : 1.85 GiB (92%)
Writing library : x264 core 152 r2851M ba24899
Encoding settings : cabac=1 / ref=4 / deblock=1:-1:-1 / analyse=0x3:0x113 / me=umh / subme=9 / psy=1 / psy_rd=1.00:0.15 / mixed_ref=1 / me_range=24 / chroma_me=1 / trellis=2 / 8x8dct=1 / cqm=0 / deadzone=21,11 / fast_pskip=1 / chroma_qp_offset=-3 / threads=16 / lookahead_threads=4 / sliced_threads=0 / nr=0 / decimate=1 / interlaced=0 / bluray_compat=0 / constrained_intra=0 / bframes=3 / b_pyramid=2 / b_adapt=2 / b_bias=0 / direct=3 / weightb=1 / open_gop=0 / weightp=2 / keyint=250 / keyint_min=25 / scenecut=40 / intra_refresh=0 / rc_lookahead=50 / rc=2pass / mbtree=1 / bitrate=2500 / ratetol=1.0 / qcomp=0.60 / qpmin=0 / qpmax=69 / qpstep=4 / cplxblur=20.0 / qblur=0.5 / vbv_maxrate=31250 / vbv_bufsize=31250 / nal_hrd=none / filler=0 / ip_ratio=1.40 / aq=3:1.00
Encoded date : UTC 2019-10-14 09:23:14
Tagged date : UTC 2019-10-14 09:23:14
Codec configuration box : avcC

Audio
ID : 2
Format : AAC LC
Format/Info : Advanced Audio Codec Low Complexity
Codec ID : mp4a-40-2
Duration : 1 h 46 min
Bit rate mode : Constant
Bit rate : 224 kb/s
Channel(s) : 2 channels
Channel layout : L R
Sampling rate : 48.0 kHz
Frame rate : 46.875 FPS (1024 SPF)
Compression mode : Lossy
Stream size : 170 MiB (8%)
Language : English
Default : Yes
Alternate group : 1
Encoded date : UTC 2019-10-14 09:23:14
Tagged date : UTC 2019-10-14 09:23:14





1 個附件 售價 大小 下載 時間

Barefoot.in.the.Park.1967.1080p.WEBRip.x264-RARBG.torrent 0 金幣 20.87K 217 次 5小時前

#1樓
發帖時間:2019-10-14 20:26:40   |   回復數:0
游客組