conanlcg
超級版主

[2007] [歐美] [劇情] [BD-1080P] 美國黑幫/犯罪帝國 American.Gangster.2007.EXTENDED.REMASTERED.1080p.BluRay.x264.DTS-X.7.1

-->

帖子完整標題:美國黑幫/犯罪帝國 American.Gangster.2007.EXTENDED.REMASTERED.1080p.BluRay.x264.DTS-X.7.1-SWTYBLZ 29.52GB




◎譯  名 美國黑幫 / 犯罪帝國 / 美國土匪
◎片  名 American Gangster
◎年  代 2007
◎產  地 美國
◎類  別 劇情 / 犯罪
◎語  言 英語
◎上映日期 2007-11-02(美國)
◎IMDb評分 7.8/10 from 371827 users
◎IMDb鏈接 https://www.imdb.com/title/tt0765429
◎豆瓣評分 7.9/10 from 37813 users
◎豆瓣鏈接 https://movie.douban.com/subject/1578503/
◎片  長 157 分鐘
◎導  演 Ridley Scott
◎編  劇 Steven Zaillian / Mark Jacobson
◎主  演 丹澤爾·華盛頓 Denzel Washington
      羅素·克勞 Russell Crowe
      切瓦特·埃加福特 Chiwetel Ejiofor
      喬什·布洛林 Josh Brolin
      里瑪莉·娜妲 Lymari Nadal
      泰德·拉文 Ted Levine
      羅杰·格午埃文·史密斯 Roger Guenveur Smith
      約翰·浩克斯 John Hawkes
      RZA
      尤爾·瓦斯克斯 Yul Vazquez
      Malcolm Goodwin
      露比·迪 Ruby Dee
      Ruben Santiago-Hudson
      卡拉·古奇諾 Carla Gugino
      Skyler Fortgang


◎標  簽 黑幫 | 美國 | 犯罪 | DenzelWashington | 美國黑幫 | 美國電影 | RussellCrowe | 2007

◎簡  介

  上世紀70年代,哈萊姆黑人區,弗蘭克?盧卡斯(丹澤爾?華盛頓 飾)是黑幫老大約翰遜的司機。約翰遜暴斃后,弗蘭克充分利用了這個來之不易的機會,將地下世界的所有權利分配進行了重組,成功上位,接手大佬事業,掌控了毒品交易大權。期間他遠赴東南亞金三角走私高純度海洛因,張羅自己的家族兄弟,集結了一幫為他賣命的手下,一股黑暗勢力正在興起。
  另一邊,警察里奇?羅伯茨(盧塞爾?克勞 飾)家庭破裂,與主流社會格格不入,整天以一副邋遢鬼模樣流連于街頭。他慢慢覺察出毒品圈內的風起云涌,,并展開了秘密調查。
  隨著調查的深入,羅伯茨和盧卡斯之間的距離越來越短,兩個氣質相近,惺惺相惜的男人,不可避免地進行正面對決……

◎獲獎情況

  第80屆奧斯卡金像獎(2008)
  最佳女配角(提名) 露比·迪
  最佳藝術指導(提名) 阿瑟·馬克斯 / Beth A. Rubino

  第65屆金球獎(2008)
  電影類 最佳劇情片(提名)
  電影類 最佳導演(提名) 雷德利·斯科特
  電影類 劇情片最佳男主角(提名) 丹澤爾·華盛頓

  第61屆英國電影學院獎(2008)
  電影獎 最佳影片(提名) 雷德利·斯科特 / 布萊恩·格雷澤
  電影獎 最佳原創劇本(提名) 斯蒂文·澤里安
  電影獎 最佳攝影(提名) 哈里斯·薩維德斯
  電影獎 最佳剪輯(提名) 彼得羅·斯卡利亞
  電影獎 最佳原創音樂(提名) 馬克·斯特雷滕菲爾德

  第17屆MTV電影獎(2008)
  MTV電影獎 最佳男演員(提名) 丹澤爾·華盛頓
  MTV電影獎 最佳反派(提名) 丹澤爾·華盛頓
Video
ID : 1
Format : AVC
Format/Info : Advanced Video Codec
Format profile : [email protected]
Format settings : CABAC / 4 Ref Frames
Format settings, CABAC : Yes
Format settings, Reference frames : 4 frames
Codec ID : V_MPEG4/ISO/AVC
Duration : 2 h 55 min
Bit rate : 18.2 Mb/s
Width : 1 920 pixels
Height : 1 038 pixels
Display aspect ratio : 1.85:1
Frame rate mode : Constant
Frame rate : 23.976 (24000/1001) FPS
Color space : YUV
Chroma subsampling : 4:2:0
Bit depth : 8 bits
Scan type : Progressive
Bits/(Pixel*Frame) : 0.380
Stream size : 22.3 GiB (76%)
Title : American.Gangster.2007.EXTENDED.REMASTERED.1080p.BluRay.x264.DTS-X.7.1-SWTYBLZ
Writing library : x264 core 157 r2935 545de2f
Encoding settings : cabac=1 / ref=4 / deblock=1:-1:-1 / analyse=0x3:0x133 / me=umh / subme=10 / psy=1 / psy_rd=1.00:0.15 / mixed_ref=1 / me_range=48 / chroma_me=1 / trellis=2 / 8x8dct=1 / cqm=0 / deadzone=21,11 / fast_pskip=1 / chroma_qp_offset=-3 / threads=32 / lookahead_threads=5 / sliced_threads=0 / nr=0 / decimate=0 / interlaced=0 / bluray_compat=0 / constrained_intra=0 / bframes=8 / b_pyramid=2 / b_adapt=2 / b_bias=0 / direct=3 / weightb=1 / open_gop=0 / weightp=2 / keyint=250 / keyint_min=23 / scenecut=40 / intra_refresh=0 / rc_lookahead=60 / rc=crf / mbtree=1 / crf=21.0 / qcomp=0.60 / qpmin=0 / qpmax=69 / qpstep=4 / ip_ratio=1.40 / aq=1:1.00
Default : Yes
Forced : No

Audio
ID : 2
Format : DTS XLL X
Format/Info : Digital Theater Systems
Commercial name : DTS-HD Master Audio
Codec ID : A_DTS
Duration : 2 h 55 min
Bit rate mode : Variable
Bit rate : 5 844 kb/s
Channel(s) : 8 channels
Channel(s)_Original : Object Based
Channel layout : Object Based
Sampling rate : 48.0 kHz
Frame rate : 93.750 FPS (512 SPF)
Bit depth : 24 bits
Stream size : 7.18 GiB (24%)
Title : American.Gangster.2007.EXTENDED.REMASTERED.1080p.BluRay.x264.DTS-X.7.1-SWTYBLZ
Language : English
Default : Yes
Forced : No

Text #1
ID : 3
Format : UTF-8
Codec ID : S_TEXT/UTF8
Codec ID/Info : UTF-8 Plain Text
Duration : 2 h 46 min
Bit rate : 69 b/s
Count of elements : 2627
Stream size : 84.0 KiB (0%)
Title : English-SRT
Language : English
Default : Yes
Forced : No

Text #2
ID : 4
Format : PGS
Muxing mode : zlib
Codec ID : S_HDMV/PGS
Codec ID/Info : Picture based subtitle format used on BDs/HD-DVDs
Duration : 2 h 47 min
Bit rate : 41.2 kb/s
Count of elements : 5600
Stream size : 49.4 MiB (0%)
Title : English-PGS
Language : English
Default : No
Forced : No

Text #3
ID : 5
Format : PGS
Muxing mode : zlib
Codec ID : S_HDMV/PGS
Codec ID/Info : Picture based subtitle format used on BDs/HD-DVDs
Duration : 2 h 46 min
Bit rate : 34.0 kb/s
Count of elements : 4562
Stream size : 40.6 MiB (0%)
Title : Spanish-PGS
Language : Spanish
Default : No
Forced : No

Text #4
ID : 6
Format : PGS
Muxing mode : zlib
Codec ID : S_HDMV/PGS
Codec ID/Info : Picture based subtitle format used on BDs/HD-DVDs
Duration : 2 h 46 min
Bit rate : 33.6 kb/s
Count of elements : 4552
Stream size : 40.1 MiB (0%)
Title : French-PGS
Language : French
Default : No
Forced : No

Menu
00:00:00.000 : en:Chapter 01
00:06:48.449 : en:Chapter 02
00:14:07.263 : en:Chapter 03
00:25:42.707 : en:Chapter 04
00:32:19.938 : en:Chapter 05
00:37:33.584 : en:Chapter 06
00:43:48.876 : en:Chapter 07
00:51:25.457 : en:Chapter 08
00:57:21.521 : en:Chapter 09
01:15:30.651 : en:Chapter 10
01:20:53.181 : en:Chapter 11
01:29:01.252 : en:Chapter 12
01:37:22.169 : en:Chapter 13
01:44:01.610 : en:Chapter 14
01:55:33.885 : en:Chapter 15
02:04:59.116 : en:Chapter 16
02:13:00.639 : en:Chapter 17
02:20:08.525 : en:Chapter 18
02:31:52.603 : en:Chapter 19
02:48:01.446 : en:Chapter 20





1 個附件 售價 大小 下載 時間

American.Gangster.2007.EXTENDED.REMASTERED.1080p.BluRay.x264.DTS-X.7.1-SWTYBLZ.torrent 0 金幣 74.38K 175 次 2小時前

#1樓
發帖時間:2019-10-14 23:23:47   |   回復數:0
游客組