conanlcg
超級版主

[2015] [歐美] [其他] [WEB-1080P] 鮑勃·威爾的漫長奇異之旅 The.Other.One.The.Long.Strange.Trip.of.Bob.Weir.2014.1080p.WEBRip.x

-->

帖子完整標題:鮑勃·威爾的漫長奇異之旅 The.Other.One.The.Long.Strange.Trip.of.Bob.Weir.2014.1080p.WEBRip.x264-RARBG 1.58GB




◎譯  名 鮑勃·威爾的漫長奇異之旅
◎片  名 The Other One: The Long, Strange Trip of Bob Weir
◎年  代 2015
◎產  地 美國
◎類  別 紀錄片
◎語  言 英語
◎上映日期 2015-05-22
◎IMDb評分 7.4/10 from 1130 users
◎IMDb鏈接 https://www.imdb.com/title/tt3692768
◎豆瓣評分 0/10 from 0 users
◎豆瓣鏈接 https://movie.douban.com/subject/26411973/
◎片  長 85分鐘
◎導  演 Mike Fleiss
◎主  演 約翰·貝內特·派瑞 John Bennett Perry
      查克·貝里 Chuck Berry
      Neal Cassady


◎標  簽 紀錄片 | 音樂紀錄片 | 音樂-紀錄片 | 2015

◎簡  介

  這部鮑勃·韋爾紀事突出了他與杰瑞·加西亞的兄弟情義,以及他身為全球最具影響力樂隊成員的成功之處。
Video
ID : 1
Format : AVC
Format/Info : Advanced Video Codec
Format profile : [email protected]
Format settings : CABAC / 4 Ref Frames
Format settings, CABAC : Yes
Format settings, Reference frames : 4 frames
Codec ID : avc1
Codec ID/Info : Advanced Video Coding
Duration : 1 h 23 min
Bit rate : 2 500 kb/s
Width : 1 920 pixels
Height : 1 080 pixels
Display aspect ratio : 16:9
Frame rate mode : Constant
Frame rate : 23.976 (23976/1000) FPS
Color space : YUV
Chroma subsampling : 4:2:0
Bit depth : 8 bits
Scan type : Progressive
Bits/(Pixel*Frame) : 0.050
Stream size : 1.45 GiB (92%)
Writing library : x264 core 152 r2851M ba24899
Encoding settings : cabac=1 / ref=4 / deblock=1:-1:-1 / analyse=0x3:0x113 / me=umh / subme=9 / psy=1 / psy_rd=1.00:0.15 / mixed_ref=1 / me_range=24 / chroma_me=1 / trellis=2 / 8x8dct=1 / cqm=0 / deadzone=21,11 / fast_pskip=1 / chroma_qp_offset=-3 / threads=16 / lookahead_threads=4 / sliced_threads=0 / nr=0 / decimate=1 / interlaced=0 / bluray_compat=0 / constrained_intra=0 / bframes=3 / b_pyramid=2 / b_adapt=2 / b_bias=0 / direct=3 / weightb=1 / open_gop=0 / weightp=2 / keyint=250 / keyint_min=25 / scenecut=40 / intra_refresh=0 / rc_lookahead=50 / rc=2pass / mbtree=1 / bitrate=2500 / ratetol=1.0 / qcomp=0.60 / qpmin=0 / qpmax=69 / qpstep=4 / cplxblur=20.0 / qblur=0.5 / vbv_maxrate=31250 / vbv_bufsize=31250 / nal_hrd=none / filler=0 / ip_ratio=1.40 / aq=3:1.00
Encoded date : UTC 2019-10-14 11:12:59
Tagged date : UTC 2019-10-14 11:12:59
Codec configuration box : avcC

Audio
ID : 2
Format : AAC LC
Format/Info : Advanced Audio Codec Low Complexity
Codec ID : mp4a-40-2
Duration : 1 h 23 min
Bit rate mode : Constant
Bit rate : 224 kb/s
Channel(s) : 6 channels
Channel layout : C L R Ls Rs LFE
Sampling rate : 48.0 kHz
Frame rate : 46.875 FPS (1024 SPF)
Compression mode : Lossy
Stream size : 133 MiB (8%)
Language : English
Default : Yes
Alternate group : 1
Encoded date : UTC 2019-10-14 11:12:59
Tagged date : UTC 2019-10-14 11:12:59





1 個附件 售價 大小 下載 時間

The.Other.One.The.Long.Strange.Trip.of.Bob.Weir.2014.1080p.WEBRip.x264-RARBG.torrent 0 金幣 16.45K 56 次 1小時前

#1樓
發帖時間:2019-10-15 00:10:48   |   回復數:0
游客組