conanlcg
超級版主

[更 早] [歐美] [驚悚] [WEB-720P] 怪形故事 Things.1993.720p.WEBRip.x264-ASSOCiATE 1.39GB

-->

帖子完整標題:怪形故事 Things.1993.720p.WEBRip.x264-ASSOCiATE 1.39GB




◎譯  名 怪形故事
◎片  名 Things
◎年  代 1993
◎產  地 美國
◎類  別 驚悚 / 恐怖
◎語  言 英語
◎IMDb評分 3.6/10 from 122 users
◎IMDb鏈接 https://www.imdb.com/title/tt0183882
◎豆瓣評分 0/10 from 0 users
◎豆瓣鏈接 https://movie.douban.com/subject/6967711/
◎導  演 Dennis Devine / Jay Woelfel
◎編  劇 Dennis Devine / Mike Bowler

◎標  簽 驚悚 | 恐怖 | 怪物 | 血腥 | 懸疑 | 奇幻 | 劇情 | 分段式

◎簡  介

  暫無相關劇情介紹
Video
ID : 1
Format : AVC
Format/Info : Advanced Video Codec
Format profile : [email protected]
Format settings : CABAC / 5 Ref Frames
Format settings, CABAC : Yes
Format settings, Reference frames : 5 frames
Codec ID : V_MPEG4/ISO/AVC
Duration : 1 h 21 min
Bit rate : 2 324 kb/s
Width : 1 236 pixels
Height : 720 pixels
Display aspect ratio : 1.717
Frame rate mode : Constant
Frame rate : 29.970 (30000/1001) FPS
Color space : YUV
Chroma subsampling : 4:2:0
Bit depth : 8 bits
Scan type : Progressive
Bits/(Pixel*Frame) : 0.087
Stream size : 1.32 GiB (95%)
Writing library : x264 core 158 r2988 7817004
Encoding settings : cabac=1 / ref=5 / deblock=1:-3:-3 / analyse=0x3:0x113 / me=hex / subme=8 / psy=1 / psy_rd=1.00:0.15 / mixed_ref=1 / me_range=16 / chroma_me=1 / trellis=2 / 8x8dct=1 / cqm=0 / deadzone=21,11 / fast_pskip=1 / chroma_qp_offset=-3 / threads=6 / lookahead_threads=1 / sliced_threads=0 / nr=0 / decimate=1 / interlaced=0 / bluray_compat=0 / constrained_intra=0 / bframes=3 / b_pyramid=2 / b_adapt=1 / b_bias=0 / direct=3 / weightb=1 / open_gop=0 / weightp=2 / keyint=250 / keyint_min=25 / scenecut=40 / intra_refresh=0 / rc_lookahead=50 / rc=crf / mbtree=1 / crf=18.0 / qcomp=0.60 / qpmin=0 / qpmax=69 / qpstep=4 / vbv_maxrate=17500 / vbv_bufsize=17500 / crf_max=0.0 / nal_hrd=none / filler=0 / ip_ratio=1.40 / aq=1:0.60
Default : Yes
Forced : No
Color range : Limited
Matrix coefficients : BT.709

Audio
ID : 2
Format : AAC LC
Format/Info : Advanced Audio Codec Low Complexity
Codec ID : A_AAC-2
Duration : 1 h 21 min
Bit rate : 126 kb/s
Channel(s) : 2 channels
Channel layout : L R
Sampling rate : 44.1 kHz
Frame rate : 43.066 FPS (1024 SPF)
Compression mode : Lossy
Stream size : 73.0 MiB (5%)
Language : English
Default : Yes
Forced : No

Text
ID : 3
Format : UTF-8
Codec ID : S_TEXT/UTF8
Codec ID/Info : UTF-8 Plain Text
Duration : 1 h 21 min
Bit rate : 50 b/s
Count of elements : 1033
Stream size : 30.3 KiB (0%)
Language : English
Default : No
Forced : No





1 個附件 售價 大小 下載 時間

Things.1993.720p.WEBRip.x264-ASSOCiATE.torrent 0 金幣 14.54K 378 次 8月前

#1樓
發帖時間:2019-11-11 05:54:03   |   回復數:1
911degrees
隱世仙人♂
非常感謝,謝謝分享
8月前 #2樓
游客組