conanlcg
超級版主

[更 早] [其他] [動作] [BD-720P] 空手道少年 Karate.Warrior.1987.720p.BluRay.x264-GHOULS 3.28GB

-->

帖子完整標題:空手道少年 Karate.Warrior.1987.720p.BluRay.x264-GHOULS 3.28GB




◎譯  名 空手道少年 / Fist of Power / Karate Warrior
◎片  名 Il Ragazzo dal kimono d'oro
◎年  代 1987
◎產  地 意大利
◎類  別 動作
◎語  言 意大利語
◎上映日期 1987-08-07
◎IMDb評分 4.5/10 from 350 users
◎IMDb鏈接 https://www.imdb.com/title/tt0166674
◎豆瓣評分 0/10 from 0 users
◎豆瓣鏈接 https://movie.douban.com/subject/1867020/
◎片  長 94 分鐘
◎導  演 Fabrizio De Angelis
◎主  演 Kim Rossi Stuart
      Janet Agren
      Ken Watanabe


◎標  簽 KimRossiStuart | 意大利 | 空手道 | 意大利電影 | 動作 | 空手道少年 | 意語片 | kimono

◎簡  介

  Anthony is in the Phillipines visiting his father. He inadvertently interferes with the affairs of local gangster Quino, who also happens to be a champion Karate fighter. After embarrassing Quino near a local tournament, Anthony is beaten up and left for dead. An old monk nurses Anthony back to health and teaches him the ways of martial arts so he may go back and fight Quino again.
Video
ID : 1
Format : AVC
Format/Info : Advanced Video Codec
Format profile : [email protected]
Format settings : CABAC / 9 Ref Frames
Format settings, CABAC : Yes
Format settings, Reference frames : 9 frames
Codec ID : V_MPEG4/ISO/AVC
Duration : 1 h 28 min
Bit rate : 4 599 kb/s
Width : 1 280 pixels
Height : 696 pixels
Display aspect ratio : 1.85:1
Frame rate mode : Constant
Frame rate : 23.976 (24000/1001) FPS
Color space : YUV
Chroma subsampling : 4:2:0
Bit depth : 8 bits
Scan type : Progressive
Bits/(Pixel*Frame) : 0.215
Stream size : 2.84 GiB (87%)
Writing library : x264 core 158 r2988 7817004
Encoding settings : cabac=1 / ref=9 / deblock=1:-3:-3 / analyse=0x3:0x133 / me=umh / subme=9 / psy=1 / psy_rd=1.00:0.00 / mixed_ref=1 / me_range=24 / chroma_me=1 / trellis=1 / 8x8dct=1 / cqm=0 / deadzone=21,11 / fast_pskip=0 / chroma_qp_offset=-2 / threads=22 / lookahead_threads=3 / sliced_threads=0 / nr=0 / decimate=1 / interlaced=0 / bluray_compat=0 / constrained_intra=0 / bframes=8 / b_pyramid=2 / b_adapt=2 / b_bias=0 / direct=3 / weightb=1 / open_gop=0 / weightp=2 / keyint=250 / keyint_min=23 / scenecut=40 / intra_refresh=0 / rc_lookahead=60 / rc=2pass / mbtree=1 / bitrate=4599 / ratetol=1.0 / qcomp=0.60 / qpmin=0 / qpmax=69 / qpstep=4 / cplxblur=20.0 / qblur=0.5 / vbv_maxrate=62500 / vbv_bufsize=78125 / nal_hrd=none / filler=0 / ip_ratio=1.40 / aq=1:1.00
Default : Yes
Forced : No

Audio
ID : 2
Format : FLAC
Format/Info : Free Lossless Audio Codec
Codec ID : A_FLAC
Duration : 1 h 28 min
Bit rate mode : Variable
Bit rate : 707 kb/s
Channel(s) : 2 channels
Channel layout : L R
Sampling rate : 48.0 kHz
Frame rate : 10.417 FPS (4608 SPF)
Bit depth : 24 bits
Compression mode : Lossless
Stream size : 447 MiB (13%)
Writing library : Lavf58.29.100
Language : Italian
Default : Yes
Forced : No

Text
ID : 3
Format : UTF-8
Codec ID : S_TEXT/UTF8
Codec ID/Info : UTF-8 Plain Text
Duration : 1 h 27 min
Bit rate : 40 b/s
Count of elements : 764
Stream size : 26.0 KiB (0%)
Language : English
Default : Yes
Forced : No

Menu
00:00:00.000 : en:Chapter 01
00:09:01.207 : en:Chapter 02
00:19:55.986 : en:Chapter 03
00:31:56.915 : en:Chapter 04
00:42:27.754 : en:Chapter 05
00:54:40.569 : en:Chapter 06
01:05:23.086 : en:Chapter 07
01:17:19.426 : en:Chapter 08





1 個附件 售價 大小 下載 時間

Karate.Warrior.1987.720p.BluRay.x264-GHOULS.torrent 0 金幣 33.60K 259 次 8月前

#1樓
發帖時間:2019-11-11 06:55:46   |   回復數:1
911degrees
隱世仙人♂
非常感謝,謝謝分享
8月前 #2樓
游客組