conanlcg
超級版主

[更 早] [其他] [劇情] [BD-1080P] 何處是我朋友的家 Where.Is.the.Friends.House.1987.1080p.BluRay.x264-GHOULS 5.47GB

-->

帖子完整標題:何處是我朋友的家 Where.Is.the.Friends.House.1987.1080p.BluRay.x264-GHOULS 5.47GB




◎譯  名 何處是我朋友的家 / Khane-ye doust kodjast? / Where Is the Friend's Home? / 踏破鐵鞋無覓處(港)
◎片  名 ???? ? ???? ??????
◎年  代 1987
◎產  地 伊朗
◎類  別 劇情
◎語  言 波斯語
◎上映日期 1987-02-01(曙光旬電影節)
◎IMDb評分 8.1/10 from 8311 users
◎IMDb鏈接 https://www.imdb.com/title/tt0093342
◎豆瓣評分 8.7/10 from 12149 users
◎豆瓣鏈接 https://movie.douban.com/subject/1301897/
◎片  長 83 分鐘
◎導  演 阿巴斯·基亞羅斯塔米 Abbas Kiarostami
◎編  劇 阿巴斯·基亞羅斯塔米 Abbas Kiarostami
◎主  演 巴比·艾哈邁德·波 Babek Ahmed Poor
      艾哈邁德·艾哈邁德·波 Ahmed Ahmed Poor
      科達·巴和·迪范 Kheda Barech Defai


◎標  簽 伊朗 | 兒童 | 童年 | 劇情 | 成長 | 溫情 | 文藝 | 經典

◎簡  介

  伊朗的偏僻山村小學里,一群孩子在課堂里聆聽老師講課。在檢查作業的時候,老師發現穆罕德屢次沒有完成家庭作業,于是嚴厲地批評了他,說如若再犯立馬開除。老師對學生強調這是幫助他們樹立良好的規矩。當天放學后,小男孩阿穆德卻赫然發現自己把同桌穆罕德的作業本帶回了家。聽懂了老師的諄諄善誘,所以阿穆德明白這作業本就是穆罕德繼續聽講的憑證。為了把作業本還給同桌,阿穆德曾希望母親和祖父可以施以援手,但是均告失敗。所以,他只能孤身前行,到對面大山里的村落去尋找同桌,歸還作業本。然而,由于不認識同桌的家,所以他處處碰壁,遭遇到了無法想象的艱難險阻……
  本片獲得第42屆戛納電影節藝術電影獎。
Video
ID : 1
Format : AVC
Format/Info : Advanced Video Codec
Format profile : [email protected]
Format settings : CABAC / 4 Ref Frames
Format settings, CABAC : Yes
Format settings, Reference frames : 4 frames
Codec ID : V_MPEG4/ISO/AVC
Duration : 1 h 23 min
Bit rate : 8 676 kb/s
Width : 1 808 pixels
Height : 1 080 pixels
Display aspect ratio : 5:3
Frame rate mode : Constant
Frame rate : 23.976 (24000/1001) FPS
Color space : YUV
Chroma subsampling : 4:2:0
Bit depth : 8 bits
Scan type : Progressive
Bits/(Pixel*Frame) : 0.185
Stream size : 5.05 GiB (93%)
Writing library : x264 core 158 r2988 7817004
Encoding settings : cabac=1 / ref=4 / deblock=1:-3:-3 / analyse=0x3:0x133 / me=umh / subme=9 / psy=1 / psy_rd=1.00:0.00 / mixed_ref=1 / me_range=24 / chroma_me=1 / trellis=1 / 8x8dct=1 / cqm=0 / deadzone=21,11 / fast_pskip=0 / chroma_qp_offset=-2 / threads=24 / lookahead_threads=4 / sliced_threads=0 / nr=0 / decimate=1 / interlaced=0 / bluray_compat=0 / constrained_intra=0 / bframes=8 / b_pyramid=2 / b_adapt=2 / b_bias=0 / direct=3 / weightb=1 / open_gop=0 / weightp=2 / keyint=250 / keyint_min=23 / scenecut=40 / intra_refresh=0 / rc_lookahead=60 / rc=2pass / mbtree=1 / bitrate=8676 / ratetol=1.0 / qcomp=0.60 / qpmin=0 / qpmax=69 / qpstep=4 / cplxblur=20.0 / qblur=0.5 / vbv_maxrate=62500 / vbv_bufsize=78125 / nal_hrd=none / filler=0 / ip_ratio=1.40 / aq=1:1.00
Default : Yes
Forced : No

Audio
ID : 2
Format : FLAC
Format/Info : Free Lossless Audio Codec
Codec ID : A_FLAC
Duration : 1 h 23 min
Bit rate mode : Variable
Bit rate : 698 kb/s
Channel(s) : 1 channel
Channel layout : C
Sampling rate : 48.0 kHz
Frame rate : 10.417 FPS (4608 SPF)
Bit depth : 24 bits
Compression mode : Lossless
Stream size : 416 MiB (7%)
Writing library : Lavf58.29.100
Language : Persian
Default : Yes
Forced : No

Text
ID : 3
Format : UTF-8
Codec ID : S_TEXT/UTF8
Codec ID/Info : UTF-8 Plain Text
Duration : 1 h 22 min
Bit rate : 35 b/s
Count of elements : 801
Stream size : 21.4 KiB (0%)
Language : English
Default : Yes
Forced : No

Menu
00:00:00.000 : en:Chapter 01
00:01:46.148 : en:Chapter 02
00:08:18.873 : en:Chapter 03
00:13:37.150 : en:Chapter 04
00:22:40.276 : en:Chapter 05
00:28:12.149 : en:Chapter 06
00:34:42.831 : en:Chapter 07
00:41:51.509 : en:Chapter 08
00:47:27.303 : en:Chapter 09
00:54:09.246 : en:Chapter 10
01:03:42.318 : en:Chapter 11
01:11:30.703 : en:Chapter 12
01:15:29.608 : en:Chapter 13
01:20:53.140 : en:Chapter 14





1 個附件 售價 大小 下載 時間

Where.Is.the.Friends.House.1987.1080p.BluRay.x264-GHOULS.torrent 0 金幣 28.19K 1043 次 8月前

#1樓
發帖時間:2019-11-11 07:01:43   |   回復數:1
911degrees
隱世仙人♂
非常感謝,謝謝分享
8月前 #2樓
游客組