conanlcg
超級版主

[2019] [歐美] [其他] [WEB-720P] 自由:流民之母 Liberty.Mother.of.Exiles.2019.720p.AMZN.WEBRip.DDP5.1.x264-GLI 2.96GB

-->

帖子完整標題:自由:流民之母 Liberty.Mother.of.Exiles.2019.720p.AMZN.WEBRip.DDP5.1.x264-GLI 2.96GB




◎譯  名 自由:流民之母
◎片  名 Liberty: Mother of Exiles
◎年  代 2019
◎產  地 美國
◎類  別 紀錄片
◎語  言 英語
◎上映日期 2019-10-24(美國)
◎IMDb評分 6.6/10 from 28 users
◎IMDb鏈接 https://www.imdb.com/title/tt10327518
◎豆瓣評分 0/10 from 0 users
◎豆瓣鏈接 https://movie.douban.com/subject/33442798/
◎導  演 Fenton Bailey / Randy Barbato

◎簡  介

  HBO將推出紐約著名雕像自由女神像的紀錄片《自由:流民之母》(Liberty: Mother of Exiles,暫譯),今年秋天播出。
  該片將通過時尚設計師、新自由女神像博物館的重要募捐者Diane von Furstenberg的視角,來探索這座雕像的歷史和意義,及作為移民的Furstenberg對其背后故事的共鳴。探索將涉及到與自由女神像有關的很多人物:該雕像的策劃者édouard René Lefèbvre de Laboulaye、亞歷山大·古斯塔夫·艾菲爾等人的后裔,人生受自由女神像影響的街頭藝術家、工廠工人、在颶風桑迪到來前居住在自由島的居民等。
  影片導演為曾給HBO和Cinemax制作過多部影片的Fenton Bailey和Randy Barbato(《派對怪獸》《羅伯特·梅普勒索普:看看那些照片》)。
Video
ID : 1
Format : AVC
Format/Info : Advanced Video Codec
Format profile : [email protected]
Format settings : CABAC / 4 Ref Frames
Format settings, CABAC : Yes
Format settings, Reference frames : 4 frames
Codec ID : V_MPEG4/ISO/AVC
Duration : 1 h 21 min
Bit rate mode : Constant
Bit rate : 4 541 kb/s
Nominal bit rate : 6 000 kb/s
Width : 1 280 pixels
Height : 720 pixels
Display aspect ratio : 16:9
Frame rate mode : Constant
Frame rate : 23.976 (24000/1001) FPS
Color space : YUV
Chroma subsampling : 4:2:0
Bit depth : 8 bits
Scan type : Progressive
Bits/(Pixel*Frame) : 0.205
Stream size : 2.59 GiB (88%)
Default : Yes
Forced : No
Color range : Limited
Color primaries : BT.709
Transfer characteristics : BT.709
Matrix coefficients : BT.709

Audio
ID : 2
Format : E-AC-3
Format/Info : Enhanced AC-3
Commercial name : Dolby Digital Plus
Codec ID : A_EAC3
Duration : 1 h 21 min
Bit rate mode : Constant
Bit rate : 640 kb/s
Channel(s) : 6 channels
Channel layout : L R C LFE Ls Rs
Sampling rate : 48.0 kHz
Frame rate : 31.250 FPS (1536 SPF)
Compression mode : Lossy
Stream size : 374 MiB (12%)
Language : English
Service kind : Complete Main
Default : Yes
Forced : No

Text
ID : 3
Format : UTF-8
Codec ID : S_TEXT/UTF8
Codec ID/Info : UTF-8 Plain Text
Duration : 1 h 20 min
Bit rate : 82 b/s
Count of elements : 1395
Stream size : 48.9 KiB (0%)
Title : SDH
Language : English
Default : Yes
Forced : No





1 個附件 售價 大小 下載 時間

Liberty.Mother.of.Exiles.2019.720p.AMZN.WEBRip.DDP5.1.x264-GLI.torrent 0 金幣 30.17K 350 次 8月前

#1樓
發帖時間:2019-11-11 08:46:50   |   回復數:1
911degrees
隱世仙人♂
非常感謝,謝謝分享
8月前 #2樓
游客組