conanlcg
超級版主

[2019] [歐美] [其他] [BD-1080P] 愛探險的朵拉:消失的黃金城 Dora.and.the.Lost.City.of.Gold.2019.1080p.BluRay.x264.TrueHD.7.1.A

-->

帖子完整標題:愛探險的朵拉:消失的黃金城 Dora.and.the.Lost.City.of.Gold.2019.1080p.BluRay.x264.TrueHD.7.1.Atmos-FGT 12.04GB




◎譯  名 愛探險的朵拉:消失的黃金城 / Dora the Explorer / 朵拉與失落的黃金城 / 愛探險的Dora:勇闖黃金迷城(港) / 愛探險的朵拉
◎片  名 Dora and the Lost City of Gold
◎年  代 2019
◎產  地 美國
◎類  別 冒險
◎語  言 英語
◎上映日期 2019-08-09(美國)
◎IMDb評分 6.1/10 from 6012 users
◎IMDb鏈接 https://www.imdb.com/title/tt7547410
◎豆瓣評分 5.5/10 from 218 users
◎豆瓣鏈接 https://movie.douban.com/subject/27179713/
◎片  長 100分鐘
◎導  演 詹姆斯·博賓 James Bobin
◎編  劇 馬修·羅賓遜 Matthew Robinson / 尼古拉斯·斯托勒 Nicholas Stoller / 克里斯·吉福德 Chris Gifford / 瓦萊麗·沃爾什 Valerie Walsh / 埃里克·韋納 Eric Weiner / 湯姆·惠勒 Tom Wheeler
◎主  演 伊莎貝拉·莫奈 Isabela Moner
      邁克爾·佩納 Michael Pe?a
      本尼西奧·德爾·托羅 Benicio del Toro
      考莉安卡·基爾徹 Q'orianka Kilcher
      伊娃·朗格利亞 Eva Longoria
      特穆拉·莫里森 Temuera Morrison
      歐赫尼奧·德爾維斯 Eugenio Derbez
      瑪德琳·麥登 Madeleine Madden
      艾德里安娜·巴拉扎 Adriana Barraza
      伊瑟拉·維加 Isela Vega
      克里斯托弗·卡比 Christopher Kirby
      尼古拉斯·庫姆 Nicholas Coombe
      布拉登·劉易斯 Braden Lewis
      杰弗里·沃爾伯格 Jeffrey Wahlberg


◎標  簽 冒險 | 美國 | 2019 | 愛探險的朵拉 | 奇幻 | 魔幻 | 派拉蒙 | 搞笑

◎簡  介

  朵拉和父母一直生活在叢林中,直到有天她的父母決定去尋找傳說中失落的黃金城,而朵拉則被迫回到都市,與表哥迭戈一家人同住,開始了一段哭笑不得的高中生活。
  在一次學校組織的參觀活動中,朵拉和朋友們被神秘人士綁架,他們被帶到了叢林深處。回到叢林的朵拉,展現出了比其他人更強的生存能力。她帶領著小猴布茨,表哥迭戈,神秘的叢林專家和一群毫無野外經驗的朋友們開始了一段驚險的冒險旅程。他們不光要在變幻莫測的叢林中生存下來,更要從壞人手中救出朵拉的父母,破解黃金城的秘密。
Video
ID : 1
Format : AVC
Format/Info : Advanced Video Codec
Format profile : H[email protected]
Format settings : CABAC / 4 Ref Frames
Format settings, CABAC : Yes
Format settings, Reference frames : 4 frames
Codec ID : V_MPEG4/ISO/AVC
Duration : 1 h 42 min
Bit rate : 11.5 Mb/s
Width : 1 920 pixels
Height : 1 080 pixels
Display aspect ratio : 16:9
Frame rate mode : Constant
Frame rate : 23.976 (24000/1001) FPS
Color space : YUV
Chroma subsampling : 4:2:0
Bit depth : 8 bits
Scan type : Progressive
Bits/(Pixel*Frame) : 0.231
Stream size : 8.22 GiB (68%)
Title : Dora.and.the.Lost.City.of.Gold.2019.1080p.BluRay.x264.TrueHD.7.1.Atmos-FGT
Writing library : x264 core 148 r2748 97eaef2
Encoding settings : cabac=1 / ref=4 / deblock=1:-2:-2 / analyse=0x3:0x113 / me=umh / subme=9 / psy=1 / psy_rd=1.00:0.15 / mixed_ref=1 / me_range=16 / chroma_me=1 / trellis=2 / 8x8dct=1 / cqm=0 / deadzone=21,11 / fast_pskip=1 / chroma_qp_offset=-3 / threads=72 / lookahead_threads=3 / sliced_threads=0 / nr=0 / decimate=1 / interlaced=0 / bluray_compat=0 / constrained_intra=0 / bframes=3 / b_pyramid=2 / b_adapt=1 / b_bias=0 / direct=3 / weightb=1 / open_gop=0 / weightp=2 / keyint=250 / keyint_min=25 / scenecut=40 / intra_refresh=0 / rc_lookahead=50 / rc=2pass / mbtree=1 / bitrate=11500 / ratetol=1.0 / qcomp=0.60 / qpmin=0 / qpmax=69 / qpstep=4 / cplxblur=20.0 / qblur=0.5 / vbv_maxrate=31250 / vbv_bufsize=31250 / nal_hrd=none / filler=0 / ip_ratio=1.40 / aq=1:1.00
Language : English
Default : Yes
Forced : No

Audio #1
ID : 2
Format : MLP FBA 16-ch
Format/Info : Meridian Lossless Packing FBA with 16-channel presentation
Commercial name : Dolby TrueHD with Dolby Atmos
Codec ID : A_TRUEHD
Duration : 1 h 42 min
Bit rate mode : Variable
Bit rate : 4 404 kb/s
Maximum bit rate : 7 182 kb/s
Channel(s) : 8 channels
Channel layout : L R C LFE Ls Rs Lb Rb
Sampling rate : 48.0 kHz
Frame rate : 1 200.000 FPS (40 SPF)
Compression mode : Lossless
Stream size : 3.15 GiB (26%)
Title : Dora.and.the.Lost.City.of.Gold.2019.1080p.BluRay.x264.TrueHD.7.1.Atmos-FGT
Language : English
Default : Yes
Forced : No
Number of dynamic objects : 11
Bed channel count : 1 channel
Bed channel configuration : LFE

Audio #2
ID : 3
Format : AC-3
Format/Info : Audio Coding 3
Commercial name : Dolby Digital
Codec ID : A_AC3
Duration : 1 h 42 min
Bit rate mode : Constant
Bit rate : 640 kb/s
Channel(s) : 6 channels
Channel layout : L R C LFE Ls Rs
Sampling rate : 48.0 kHz
Frame rate : 31.250 FPS (1536 SPF)
Bit depth : 16 bits
Compression mode : Lossy
Stream size : 469 MiB (4%)
Title : Dora.and.the.Lost.City.of.Gold.2019.1080p.BluRay.x264.TrueHD.7.1.Atmos-FGT
Language : English
Service kind : Complete Main
Default : No
Forced : No

Text #1
ID : 4
Format : UTF-8
Codec ID : S_TEXT/UTF8
Codec ID/Info : UTF-8 Plain Text
Duration : 1 h 32 min
Bit rate : 0 b/s
Count of elements : 24
Stream size : 553 Bytes (0%)
Title : English-FORCED-SRT
Language : English
Default : Yes
Forced : Yes

Text #2
ID : 5
Format : UTF-8
Codec ID : S_TEXT/UTF8
Codec ID/Info : UTF-8 Plain Text
Duration : 1 h 37 min
Bit rate : 58 b/s
Count of elements : 1393
Stream size : 41.5 KiB (0%)
Title : English-SRT
Language : English
Default : No
Forced : No

Text #3
ID : 6
Format : PGS
Muxing mode : zlib
Codec ID : S_HDMV/PGS
Codec ID/Info : Picture based subtitle format used on BDs/HD-DVDs
Duration : 1 h 37 min
Bit rate : 42.9 kb/s
Count of elements : 2800
Stream size : 29.8 MiB (0%)
Title : English-PGS
Language : English
Default : No
Forced : No

Text #4
ID : 7
Format : PGS
Muxing mode : zlib
Codec ID : S_HDMV/PGS
Codec ID/Info : Picture based subtitle format used on BDs/HD-DVDs
Duration : 1 h 32 min
Bit rate : 355 b/s
Count of elements : 48
Stream size : 241 KiB (0%)
Title : English-FORCED-PGS
Language : English
Default : No
Forced : No

Text #5
ID : 8
Format : PGS
Muxing mode : zlib
Codec ID : S_HDMV/PGS
Codec ID/Info : Picture based subtitle format used on BDs/HD-DVDs
Duration : 1 h 41 min
Bit rate : 48.8 kb/s
Count of elements : 3430
Stream size : 35.4 MiB (0%)
Title : English-SDH-PGS
Language : English
Default : No
Forced : No

Text #6
ID : 9
Format : PGS
Muxing mode : zlib
Codec ID : S_HDMV/PGS
Codec ID/Info : Picture based subtitle format used on BDs/HD-DVDs
Duration : 1 h 41 min
Bit rate : 45.5 kb/s
Count of elements : 2822
Stream size : 33.1 MiB (0%)
Title : Malay-PGS
Language : Malay
Default : No
Forced : No

Text #7
ID : 10
Format : PGS
Muxing mode : zlib
Codec ID : S_HDMV/PGS
Codec ID/Info : Picture based subtitle format used on BDs/HD-DVDs
Duration : 1 h 41 min
Bit rate : 33.7 kb/s
Count of elements : 2828
Stream size : 24.5 MiB (0%)
Title : Chinese-PGS
Language : Chinese
Default : No
Forced : No

Text #8
ID : 11
Format : PGS
Muxing mode : zlib
Codec ID : S_HDMV/PGS
Codec ID/Info : Picture based subtitle format used on BDs/HD-DVDs
Duration : 1 h 41 min
Bit rate : 38.6 kb/s
Count of elements : 2722
Stream size : 28.1 MiB (0%)
Title : Spanish-PGS
Language : Spanish
Default : No
Forced : No

Text #9
ID : 12
Format : PGS
Muxing mode : zlib
Codec ID : S_HDMV/PGS
Codec ID/Info : Picture based subtitle format used on BDs/HD-DVDs
Duration : 1 h 40 min
Bit rate : 356 b/s
Count of elements : 36
Stream size : 262 KiB (0%)
Title : Spanish-FORCED-PGS
Language : Spanish
Default : No
Forced : No

Text #10
ID : 13
Format : PGS
Muxing mode : zlib
Codec ID : S_HDMV/PGS
Codec ID/Info : Picture based subtitle format used on BDs/HD-DVDs
Duration : 1 h 41 min
Bit rate : 43.3 kb/s
Count of elements : 2800
Stream size : 31.4 MiB (0%)
Title : French-PGS
Language : French
Default : No
Forced : No

Text #11
ID : 14
Format : PGS
Muxing mode : zlib
Codec ID : S_HDMV/PGS
Codec ID/Info : Picture based subtitle format used on BDs/HD-DVDs
Duration : 1 h 40 min
Bit rate : 554 b/s
Count of elements : 62
Stream size : 407 KiB (0%)
Title : French-FORCED-PGS
Language : French
Default : No
Forced : No

Text #12
ID : 15
Format : PGS
Muxing mode : zlib
Codec ID : S_HDMV/PGS
Codec ID/Info : Picture based subtitle format used on BDs/HD-DVDs
Duration : 1 h 41 min
Bit rate : 34.8 kb/s
Count of elements : 2826
Stream size : 25.3 MiB (0%)
Title : Hindi-PGS
Language : Hindi
Default : No
Forced : No

Text #13
ID : 16
Format : PGS
Muxing mode : zlib
Codec ID : S_HDMV/PGS
Codec ID/Info : Picture based subtitle format used on BDs/HD-DVDs
Duration : 1 h 37 min
Bit rate : 29.3 kb/s
Count of elements : 2828
Stream size : 20.4 MiB (0%)
Title : Japanese-PGS
Language : Japanese
Default : No
Forced : No

Text #14
ID : 17
Format : PGS
Muxing mode : zlib
Codec ID : S_HDMV/PGS
Codec ID/Info : Picture based subtitle format used on BDs/HD-DVDs
Duration : 1 h 41 min
Bit rate : 32.5 kb/s
Count of elements : 2830
Stream size : 23.6 MiB (0%)
Title : Korean-PGS
Language : Korean
Default : No
Forced : No

Text #15
ID : 18
Format : PGS
Muxing mode : zlib
Codec ID : S_HDMV/PGS
Codec ID/Info : Picture based subtitle format used on BDs/HD-DVDs
Duration : 1 h 41 min
Bit rate : 32.3 kb/s
Count of elements : 2828
Stream size : 23.5 MiB (0%)
Title : Chinese-PGS
Language : Chinese
Default : No
Forced : No

Text #16
ID : 19
Format : PGS
Muxing mode : zlib
Codec ID : S_HDMV/PGS
Codec ID/Info : Picture based subtitle format used on BDs/HD-DVDs
Duration : 1 h 41 min
Bit rate : 33.1 kb/s
Count of elements : 2828
Stream size : 24.0 MiB (0%)
Title : Thai-PGS
Language : Thai
Default : No
Forced : No

Text #17
ID : 20
Format : PGS
Muxing mode : zlib
Codec ID : S_HDMV/PGS
Codec ID/Info : Picture based subtitle format used on BDs/HD-DVDs
Duration : 1 h 37 min
Bit rate : 601 b/s
Count of elements : 56
Stream size : 431 KiB (0%)
Title : Thai-FORCED-PGS
Language : Thai
Default : No
Forced : No

Text #18
ID : 21
Format : PGS
Muxing mode : zlib
Codec ID : S_HDMV/PGS
Codec ID/Info : Picture based subtitle format used on BDs/HD-DVDs
Duration : 1 h 35 min
Bit rate : 890 b/s
Count of elements : 92
Stream size : 620 KiB (0%)
Title : Japanese-FORCED-PGS
Language : Japanese
Default : No
Forced : No

Menu
00:00:00.000 : en:Chapter 01
00:04:52.417 : en:Chapter 02
00:09:49.088 : en:Chapter 03
00:15:35.643 : en:Chapter 04
00:20:26.767 : en:Chapter 05
00:25:47.837 : en:Chapter 06
00:35:15.780 : en:Chapter 07
00:42:53.737 : en:Chapter 08
00:47:13.664 : en:Chapter 09
00:52:57.883 : en:Chapter 10
00:55:41.463 : en:Chapter 11
01:01:02.659 : en:Chapter 12
01:06:11.384 : en:Chapter 13
01:10:23.135 : en:Chapter 14
01:13:51.885 : en:Chapter 15
01:18:26.326 : en:Chapter 16
01:22:39.496 : en:Chapter 17
01:32:57.947 : en:Chapter 18
01:38:30.404 : en:Chapter 19





1 個附件 售價 大小 下載 時間

Dora.and.the.Lost.City.of.Gold.2019.1080p.BluRay.x264.TrueHD.7.1.Atmos-FGT.torrent 0 金幣 60.76K 1673 次 8月前

#1樓
發帖時間:2019-11-11 09:54:13   |   回復數:2
911degrees
隱世仙人♂
非常感謝,謝謝分享
8月前 #2樓
liyouchai
隱世仙人♂
謝謝樓主分享資源
8月前 #3樓
游客組