conanlcg
超級版主

[2018] [歐美] [劇情] [WEB-1080P] 殺人自白 Strawberry.Flavored.Plastic.2019.1080p.WEB-DL.DD2.0.H264-FGT 4.03GB

-->

帖子完整標題:殺人自白 Strawberry.Flavored.Plastic.2019.1080p.WEB-DL.DD2.0.H264-FGT 4.03GB




◎譯  名 殺人自白
◎片  名 Strawberry Flavored Plastic
◎年  代 2018
◎產  地 美國
◎類  別 劇情 / 驚悚 / 恐怖 / 犯罪
◎語  言 英語
◎IMDb評分 5.8/10 from 44 users
◎IMDb鏈接 https://www.imdb.com/title/tt6949398
◎豆瓣評分 0/10 from 0 users
◎豆瓣鏈接 https://movie.douban.com/subject/30128263/
◎片  長 107分鐘
◎導  演 Colin Bemis
◎編  劇 Colin Bemis
◎主  演 Aidan Bristow
      Nicholas Urda
      Andres Montejo


◎標  簽 美國電影 | 恐怖 | 美國 | 犯罪 | 驚悚 | 哲學 | 劇情 | 3M稀影基地論壇

◎簡  介

  A sensational, sentimental, and philosophical horror neo-noir that follows the still-at-large crimes of Noel, a repentant, classy and charming serial killer loose in the suburbs of New York.
Video
ID : 1
Format : AVC
Format/Info : Advanced Video Codec
Format profile : [email protected]
Format settings : CABAC / 4 Ref Frames
Format settings, CABAC : Yes
Format settings, Reference frames : 4 frames
Codec ID : V_MPEG4/ISO/AVC
Duration : 1 h 47 min
Bit rate : 5 189 kb/s
Width : 1 920 pixels
Height : 1 080 pixels
Display aspect ratio : 16:9
Frame rate mode : Constant
Frame rate : 23.976 FPS
Color space : YUV
Chroma subsampling : 4:2:0
Bit depth : 8 bits
Scan type : Progressive
Bits/(Pixel*Frame) : 0.104
Stream size : 3.89 GiB (96%)
Title : Strawberry.Flavored.Plastic.2019.1080p.WEB-DL.DD2.0.H264-FGT
Language : English
Default : Yes
Forced : No
Color range : Limited
Color primaries : BT.709
Transfer characteristics : BT.709
Matrix coefficients : BT.709

Audio
ID : 2
Format : AC-3
Format/Info : Audio Coding 3
Commercial name : Dolby Digital
Codec ID : A_AC3
Duration : 1 h 47 min
Bit rate mode : Constant
Bit rate : 192 kb/s
Channel(s) : 2 channels
Channel layout : L R
Sampling rate : 48.0 kHz
Frame rate : 31.250 FPS (1536 SPF)
Bit depth : 16 bits
Compression mode : Lossy
Stream size : 147 MiB (4%)
Title : Strawberry.Flavored.Plastic.2019.1080p.WEB-DL.DD2.0.H264-FGT
Service kind : Complete Main
Default : Yes
Forced : No

Text
ID : 3
Format : UTF-8
Codec ID : S_TEXT/UTF8
Codec ID/Info : UTF-8 Plain Text
Duration : 1 h 47 min
Bit rate : 96 b/s
Count of elements : 1951
Stream size : 75.4 KiB (0%)
Language : English
Default : Yes
Forced : No

Menu
00:00:00.000 : en:1
00:12:09.813 : en:2
00:24:44.567 : en:3
00:38:29.516 : en:4
00:49:32.720 : en:5
01:03:35.937 : en:6
01:14:42.228 : en:7
01:24:47.958 : en:8
01:34:46.973 : en:9
01:44:29.930 : en:10





1 個附件 售價 大小 下載 時間

Strawberry.Flavored.Plastic.2019.1080p.WEB-DL.DD2.0.H264-FGT.torrent 0 金幣 40.89K 315 次 8月前

#1樓
發帖時間:2019-11-11 18:06:35   |   回復數:3
wangyu4413
武林高手
感謝分享,謝謝版主大愛
8月前 #2樓
911degrees
隱世仙人♂
非常感謝,謝謝分享
8月前 #3樓
tanchoohoon
武林盟主
感謝樓主的無私分享
8月前 #4樓
游客組