conanlcg
超級版主

[2019] [歐美] [喜劇] [WEB-1080P] 這里是地獄 Here.Comes.Hell.2019.1080p.WEB-DL.DD2.0.H264-FGT 2.51GB

-->

帖子完整標題:這里是地獄 Here.Comes.Hell.2019.1080p.WEB-DL.DD2.0.H264-FGT 2.51GB




◎譯  名 這里是地獄
◎片  名 Here Comes Hell
◎年  代 2019
◎產  地 英國
◎類  別 喜劇 / 恐怖
◎語  言 英語
◎上映日期 2019-03-01(Glasgow Fright Fest)
◎IMDb評分 5.8/10 from 70 users
◎IMDb鏈接 https://www.imdb.com/title/tt7947624
◎豆瓣評分 0/10 from 0 users
◎豆瓣鏈接 https://movie.douban.com/subject/30446243/
◎片  長 80分鐘
◎導  演 Jack McHenry
◎編  劇 Jack McHenry / Alice Sidgwick
◎主  演 瑪格麗特·科魯尼 Margaret Clunie
      尼古拉斯·勒·普雷沃斯特 Nicholas Le Prevost
      羅伯特·盧埃林 Robert Llewellyn


◎標  簽 英國電影 | 恐怖 | 喜劇 | Jack_McHenry

◎簡  介

  A 1930's dinner party descends into carnage, gore and demonic possession in Here Comes Hell, a genre-clashing horror comedy.
Video
ID : 1
Format : AVC
Format/Info : Advanced Video Codec
Format profile : [email protected]
Format settings : CABAC / 5 Ref Frames
Format settings, CABAC : Yes
Format settings, Reference frames : 5 frames
Codec ID : V_MPEG4/ISO/AVC
Duration : 1 h 15 min
Bit rate : 4 562 kb/s
Width : 1 436 pixels
Height : 1 076 pixels
Display aspect ratio : 4:3
Frame rate mode : Constant
Frame rate : 23.976 FPS
Color space : YUV
Chroma subsampling : 4:2:0
Bit depth : 8 bits
Scan type : Progressive
Bits/(Pixel*Frame) : 0.123
Stream size : 2.41 GiB (96%)
Title : Here.Comes.Hell.2019.1080p.WEB-DL.DD2.0.H264-FGT
Language : English
Default : Yes
Forced : No
Color range : Limited
Color primaries : BT.709
Transfer characteristics : BT.709
Matrix coefficients : BT.709

Audio
ID : 2
Format : AC-3
Format/Info : Audio Coding 3
Commercial name : Dolby Digital
Codec ID : A_AC3
Duration : 1 h 15 min
Bit rate mode : Constant
Bit rate : 192 kb/s
Channel(s) : 2 channels
Channel layout : L R
Sampling rate : 48.0 kHz
Frame rate : 31.250 FPS (1536 SPF)
Bit depth : 16 bits
Compression mode : Lossy
Stream size : 104 MiB (4%)
Title : Here.Comes.Hell.2019.1080p.WEB-DL.DD2.0.H264-FGT
Service kind : Complete Main
Default : Yes
Forced : No

Menu
00:00:00.000 : en:Chapter 1
00:19:05.061 : en:Chapter 2
00:39:13.144 : en:Chapter 3
01:01:41.075 : en:Chapter 4
01:13:08.678 : en:Chapter 5





1 個附件 售價 大小 下載 時間

Here.Comes.Hell.2019.1080p.WEB-DL.DD2.0.H264-FGT.torrent 0 金幣 25.61K 273 次 8月前

#1樓
發帖時間:2019-11-11 18:11:24   |   回復數:1
911degrees
隱世仙人♂
非常感謝,謝謝分享
8月前 #2樓
游客組